Калина не скучай

Ирина Коломицина предлагает статью на тему: "калина не скучай" с полным описанием. Мы постарались донести до Вас информацию в самом доступном виде.

Формат: FLAC, (image + .cue), lossless
Год выпуска: 2010
Страна: Россия
Жанр: Шансон
Продолжительность: 00:37:44
Описание:

01. Лей ливень, лей
02. Не скучай, калина
03. Ночная тишина
04. Осенний ветер
05. Голубоглазая
06. Посидим, помолчим
07. В тумане
08. Нежный поцелуй
09. Белый снег
10. Моя любовь
11. Будь всегда со мной

Exact Audio Copy V1.0 beta 1 from 15. November 2010

Отчёт EAC об извлечении, выполненном 17. января 2011, 13:26

Валерий Палаускас / Не скучай, калина

Дисковод: ASUS DRW-1814BLT Adapter: 2 ID: 0

Режим чтения : Достоверность
Использование точного потока : Да
Отключение кэша аудио : Да
Использование указателей C2 : Нет

Коррекция смещения при чтении : 6
Способность читать области Lead-in и Lead-out : Нет
Заполнение пропущенных сэмплов тишиной : Да
Удаление блоков с тишиной в начале и конце : Нет
При вычислениях CRC использовались нулевые сэмплы : Да
Интерфейс : Встроенный Win32-интерфейс для Win NT/2000

Выходной формат : Внутренние WAV-операции
Формат сэмплов : 44.100 Гц; 16 бит; стерео

TOC извлечённого CD

Трек | Старт | Длительность | Начальный сектор | Конечный сектор
———————————————————————
1 | 0:00.00 | 3:12.17 | 0 | 14416
2 | 3:12.17 | 3:16.02 | 14417 | 29118
3 | 6:28.19 | 3:20.05 | 29119 | 44123
4 | 9:48.24 | 3:06.69 | 44124 | 58142
5 | 12:55.18 | 3:26.46 | 58143 | 73638
6 | 16:21.64 | 4:15.61 | 73639 | 92824
7 | 20:37.50 | 2:59.74 | 92825 | 106323
8 | 23:37.49 | 3:30.59 | 106324 | 122132
9 | 27:08.33 | 3:20.48 | 122133 | 137180
10 | 30:29.06 | 2:47.68 | 137181 | 149773
11 | 33:16.74 | 4:27.29 | 149774 | 169827

Характеристики диапазона извлечения и сообщения об ошибках

Имя файла D:Lossless2010 – Валерий Палаускас – Не скучай, калинаВалерий Палаускас – Не скучай, калина.wav

Пиковый уровень 96.6 %
0.7 X
Качество диапазона 99.9 %
CRC теста 08CC2E45
CRC копии 08CC2E45
Копирование. OK

Еще статьи:  Доброе утро по тебе скучаю по тебе

Ошибок не произошло

Трек 1 нет в базе данных
Трек 2 нет в базе данных
Трек 3 нет в базе данных
Трек 4 нет в базе данных
Трек 5 нет в базе данных
Трек 6 нет в базе данных
Трек 7 нет в базе данных
Трек 8 нет в базе данных
Трек 9 нет в базе данных
Трек 10 нет в базе данных
Трек 11 нет в базе данных

1. Там, у волнистых полей одиноко калина цветет.
Там, в золотистых колосьях она меня преданно ждет.
Там, услышал твой голос по волнистым полям плыву.
Там, на свиданьи с тобой сказал я “Безумно люблю”

Там, услышал твой голос по волнистым полям плыву.
Там, на свиданьи с тобой тебя я люблю.

Припев:
Не скучай, калина.
Не скучай, любимая.
Не скучай, калина.
Молодость влюбленная.

Не скучай, калина.
Не скучай,любимая.
Ты моя калинушкааааа

2. Я хочу быть с тобой, нас не разлучат дожди.
Я согласен стать кленом твоим , только ты меня жди.
Я забуду обиды, от них не осталось следа.
Я отныне твой клен, ты моя калина.

Я забуду обиды, от них не осталось следа.
Я отныне твой клен, ты моя калина.

Припев:
Не скучай, калина.
Не скучай, любимая.
Не скучай, калина.
Молодость влюбленная.

Не скучай, калина.
Не скучай,любимая.
Ты моя калинушкаааааа

Не скучай, калина.
Не скучай, любимая.
Не скучай, калина.
Молодость влюбленная.

Не скучай, калина.
Не скучай,любимая.
Ты моя калинушкаааааа

Ты моя калинушка. аа..
Ты моя калинушкаааааа

Автор статьи: Ирина Коломицина

Позвольте представиться. Меня зовут Ира. Я уже более 6 лет занимаюсь психологией отношений. Считая себя профессионалом, хочу научить всех посетителей сайта решать сложные и не очень задачи. Все данные для сайта собраны и тщательно переработаны для того чтобы донести в доступном виде всю необходимую информацию. Перед применением описанного на сайте всегда необходима ОБЯЗАТЕЛЬНАЯ консультация с профессионалами.

Еще статьи:  На расстоянии скучаю
Обо мнеОбратная связь
Оцените это сообщение
ПОДЕЛИТЬСЯ

ОСТАВЬТЕ ОТВЕТ

Please enter your comment!
Please enter your name here